Estas en: Inicio Inicio / Articles / Música / Club House / 2015 / Octubrre / Club House 2015
Club House 2015
Escrito por Jaime C Mayol el Thursday 01 Oct 2015 12:54
ultima actualizacion en Tuesday 18 Jun 2019 06:54
Imprimir Pdf Rss Correo
Club House 2015 Creo recordar que esta fue la primera sesión que hice usando macros introducidos en POI's de acción. A raíz de aquí empiezo a crear mis sesiones mucho mas decentes.

Descargar Club House 2015

PERFORMER "MrJacky"
TITLE "Club House 2015"
FILE "2015-10-01 - Club House Mix" MP3

TRACK 01 AUDIO
TITLE "How's Your Body (Original Mix)"
PERFORMER "Calippo"
INDEX 01 00:00:00

TRACK 02 AUDIO
TITLE "The Key (Original Mix)"
PERFORMER "Klardust"
INDEX 01 00:04:24

TRACK 03 AUDIO
TITLE "Wizard (Tchami Remix)"
PERFORMER "Martin Garrix & Jay Hardway"
INDEX 01 00:07:27

TRACK 04 AUDIO
TITLE "Everybody Get Up (Original Mix)"
PERFORMER "Code 3000"
INDEX 01 00:11:31

TRACK 05 AUDIO
TITLE "Step Back (Low Steppa Remix)"
PERFORMER "Chocolate Puma ft. Kris Kiss"
INDEX 01 00:16:21

TRACK 06 AUDIO
TITLE "The Boy Is Bangin (Luca Debonaire Remix)"
PERFORMER "Don Corleone & Robert Feelgood"
INDEX 01 00:19:54

TRACK 07 AUDIO
TITLE "Ain't No Sunshine (Extended Mix)"
PERFORMER "Simioli, Provenzano, Scarlet"
INDEX 01 00:24:13

TRACK 08 AUDIO
TITLE "Hung Up On You (Original Mix)"
PERFORMER "Luca Debonaire"
INDEX 01 00:27:49

TRACK 09 AUDIO
TITLE "Wicked Things (Original Mix)"
PERFORMER "Sander Kleinenberg ft. Audio Bullys"
INDEX 01 00:31:23

TRACK 10 AUDIO
TITLE "Raw Cut (Original Mix)"
PERFORMER "Prok & Fitch"
INDEX 01 00:35:13

TRACK 11 AUDIO
TITLE "Throw Your Hands Up (Original Mix)"
PERFORMER "Andruss, Ammo Avenue "
INDEX 01 00:39:55

TRACK 12 AUDIO
TITLE "Yeah! (Original Mix)"
PERFORMER "Tavo"
INDEX 01 00:43:44

TRACK 13 AUDIO
TITLE "Yes! (Original Mix)"
PERFORMER "Jack Holiday"
INDEX 01 00:47:32

TRACK 14 AUDIO
TITLE "Just a Little Bit (Moscow Chiks Remix)"
PERFORMER "Claudia feat. Fatman Scoop"
INDEX 01 00:50:27

TRACK 15 AUDIO
TITLE "Handle the Pressure (Luca Debonaire Omerta Mix)"
PERFORMER "Don Corleone & Tavo"
INDEX 01 00:54:20

TRACK 16 AUDIO
TITLE "California feat. Kaleena Zanders (Chris Lake & Matroda Remix)"
PERFORMER "SNBRN, Kaleena Zanders"
INDEX 01 00:58:22

TRACK 17 AUDIO
TITLE "I Believe (Original Mix)"
PERFORMER "Disord3r, Deep Matter"
INDEX 01 01:02:33

TRACK 18 AUDIO
TITLE "Fearless (Original Mix)"
PERFORMER "Lucas & Steve"
INDEX 01 01:07:00

TRACK 19 AUDIO
TITLE "Say It (Original Mix)"
PERFORMER "My Digital Enemy"
INDEX 01 01:10:37

TRACK 20 AUDIO
TITLE "A Little Deeper (Original Mix)"
PERFORMER "Code 3000"
INDEX 01 01:15:23

Compartir




Los comentarios pueden ser moderados antes de ser publicados.
Puedes usar BBCode para formatear mensajes
Información
El contenido de este sitio web es personal y privado!

Gran parte de su contenido es gratuito y/o con licencia GNU. Sin embargo, mis sesiones suelen estar protegidas con derechos de autor y esta prohibida su venta o distribución.
Online visitors
Actualmente hay 1 invitados y 0 usuarios en línea.
-
Copyright © 2019 by MrJacky
Powered by MemHT
Terms of use
Utilizamos cookies para darle la mejor experiencia en nuestro sitio web. Si continúa usando TRiPuNTo, asumiremos que está feliz de recibir todas las cookies en este sitio web. Para más información, por favor revise nuestros Términos de uso.
Terms of use