Estas en: Inicio Inicio / Articles / Música / Electro Swing / 2018 / Noviembre / Pure Swing 2018
Pure Swing 2018
Escrito por Jaime C Mayol el Wednesday 14 Nov 2018 10:06
ultima actualizacion en Saturday 08 Jun 2019 18:02
Imprimir Pdf Rss Correo
Pure Swing 2018 Una de mis primeras sesiones grabadas en formato mp4, utilizando los sombreadores de VirtualDJ y el panel de efectos de video creado por mí mismo y publicado en el sitio web oficial de VirtualDJ.

Si desea ver el video en línea, puede verlo desde youtube si continúas leyendo esta noticia.




PERFORMER "MrJacky"
TITLE "Pure Swing 2018"
FILE "Pure Swing 2018 (by MrJacky).mp4" MP3
TRACK 01 AUDIO
TITLE "Wah De Da De"
PERFORMER "Louie Prima & Wolfgang Lohr"
INDEX 01 00:00:00
TRACK 02 AUDIO
TITLE "Is You Is!"
PERFORMER "Soulbrarian"
INDEX 01 04:50:00
TRACK 03 AUDIO
TITLE "Scatmaster Flash"
PERFORMER "Guido Spumante, Pepe Spumante & Junior Di Luca"
INDEX 01 08:21:00
TRACK 04 AUDIO
TITLE "Bei Mir Bist Du Scheen"
PERFORMER "Louie Prima & Wolfgang Lohr"
INDEX 01 10:37:00
TRACK 05 AUDIO
TITLE "Love Me or Leave Me"
PERFORMER "Phos Toni"
INDEX 01 15:00:00
TRACK 06 AUDIO
TITLE "Bootlegger Blues"
PERFORMER "C@ In The H@"
INDEX 01 21:49:00
TRACK 07 AUDIO
TITLE "Mais Non"
PERFORMER "Klischee"
INDEX 01 25:34:00
TRACK 08 AUDIO
TITLE "God Almighty Is Gonna Cut You Down"
PERFORMER "The Gentlemen Callers of Los Angeles"
INDEX 01 28:47:00
TRACK 09 AUDIO
TITLE "Prohibition Swing"
PERFORMER "Lyre le temps"
INDEX 01 31:59:00
TRACK 10 AUDIO
TITLE "Gavotte De Carotte"
PERFORMER "Traktorkestar"
INDEX 01 36:18:00
TRACK 11 AUDIO
TITLE "Femme Fatale"
PERFORMER "Klische"
INDEX 01 39:54:00
TRACK 12 AUDIO
TITLE "Ich bring dich um die Ecke"
PERFORMER "Cab Canavaral"
INDEX 01 43:26:00
TRACK 13 AUDIO
TITLE "The Gal From Joe's"
PERFORMER "Charlie Beale"
INDEX 01 47:31:00
TRACK 14 AUDIO
TITLE "Shim Sham"
PERFORMER "Zouzoulectric"
INDEX 01 50:54:00
TRACK 15 AUDIO
TITLE "Stereophonic Swing"
PERFORMER "Mondo Exotica"
INDEX 01 55:19:00
TRACK 16 AUDIO
TITLE "Doin' the Uptown Lowdown"
PERFORMER "Revel Harry, Joe Venuti, Joe Martin"
INDEX 01 58:58:00
TRACK 17 AUDIO
TITLE "Is That Too Much to Ask"
PERFORMER "Biboulakis feat. Nina Zeitlin"
INDEX 01 62:09:00
TRACK 18 AUDIO
TITLE "Repeal The Blues"
PERFORMER "Louie Prima & Harry Chestwig feat Ray Noble"
INDEX 01 64:50:00
TRACK 19 AUDIO
TITLE "Jizz Rag"
PERFORMER "Skeewiff"
INDEX 01 68:51:00
TRACK 20 AUDIO
TITLE "Champagne Swing"
PERFORMER "Stereo Swing feat. Gabi Szucs"
INDEX 01 70:51:00
TRACK 21 AUDIO
TITLE "Old Tyme Religion"
PERFORMER "The Gentlemen Callers of Los Angeles"
INDEX 01 74:44:00
TRACK 22 AUDIO
TITLE "Ten Tappin Toes"
PERFORMER "Leportier"
INDEX 01 79:10:00
TRACK 23 AUDIO
TITLE "Rendez-Vouz"
PERFORMER "Pep's Show Boys & Sebastian Roser"
INDEX 01 83:51:00
TRACK 24 AUDIO
TITLE "Get a Wiggle On"
PERFORMER "Guido Spumante & Pepe Spumante"
INDEX 01 88:07:00
TRACK 25 AUDIO
TITLE "The Performer"
PERFORMER "Jamie Berry"
INDEX 01 90:16:00
TRACK 26 AUDIO
TITLE "Megaswing"
PERFORMER "Nikola Vujicic"
INDEX 01 93:59:00
TRACK 27 AUDIO
TITLE "Swing Ohne Geld"
PERFORMER "Kalletti Klub"
INDEX 01 98:37:00
TRACK 28 AUDIO
TITLE "Mental Note"
PERFORMER "Extra Medium"
INDEX 01 116:04:00
TRACK 29 AUDIO
TITLE "Got That Swing"
PERFORMER "The Swing Bot"
INDEX 01 119:46:00
TRACK 30 AUDIO
TITLE "Swing What You Got"
PERFORMER "5 In Love"
INDEX 01 124:16:00
TRACK 31 AUDIO
TITLE "Betty Swing"
PERFORMER "Frizzo"
INDEX 01 128:26:00
TRACK 32 AUDIO
TITLE "Ballroom Breakers"
PERFORMER "Savages Y Suefo"
INDEX 01 132:53:00
TRACK 33 AUDIO
TITLE "Vagabond Nights"
PERFORMER "Soulbrarian"
INDEX 01 136:06:00
TRACK 34 AUDIO
TITLE "What Lana Says"
PERFORMER "ProleteR"
INDEX 01 139:39:00
TRACK 35 AUDIO
TITLE "I've Got that Tune"
PERFORMER "Chinese Man"
INDEX 01 144:17:00
TRACK 36 AUDIO
TITLE "Puttin' On The Ritz"
PERFORMER "Fred Astaire"
INDEX 01 147:58:00
TRACK 37 AUDIO
TITLE "Lowdown Strut"
PERFORMER "Jazzy Fox"
INDEX 01 152:05:00
TRACK 38 AUDIO
TITLE "Thrift Shop"
PERFORMER "Lil' Mishka"
INDEX 01 154:39:00
TRACK 39 AUDIO
TITLE "Black Coffee"
PERFORMER "Pisk feat. Nat Gonella"
INDEX 01 158:05:00
TRACK 40 AUDIO
TITLE "Digga Dooh"
PERFORMER "DJ Louie Prima & Wolfgang Lohr"
INDEX 01 162:17:00
Compartir




Los comentarios pueden ser moderados antes de ser publicados.
Puedes usar BBCode para formatear mensajes
Información
El contenido de este sitio web es personal y privado!

Gran parte de su contenido es gratuito y/o con licencia GNU. Sin embargo, mis sesiones suelen estar protegidas con derechos de autor y esta prohibida su venta o distribución.
Online visitors
Actualmente hay 1 invitados y 0 usuarios en línea.
-
Copyright © 2019 by MrJacky
Powered by MemHT
Terms of use
Utilizamos cookies para darle la mejor experiencia en nuestro sitio web. Si continúa usando TRiPuNTo, asumiremos que está feliz de recibir todas las cookies en este sitio web. Para más información, por favor revise nuestros Términos de uso.
Terms of use