Estas en: Inicio Inicio / Articles / Música / Future Bass / 2018 / Deciciembre / Future Bass 2018
Future Bass 2018
Escrito por Jaime C Mayol el Wednesday 05 Dec 2018 10:03
ultima actualizacion en Tuesday 18 Jun 2019 07:18
Imprimir Pdf Rss Correo
Future Bass 2018 Cansado de canciones largas y repetitivas, he encontrado el género que mejor me define en el mundo de la música. Me gusta este género musical por tener un ritmo bastante tranquilo, pero al mismo tiempo tiene muchas notas vocales y buenos subidones. Ideal para pinchar en mi lounge de Banyalbufar.

Descargar Future Bass 2018

PERFORMER "MrJacky"
TITLE "Future Bass 2018"
FILE "FutureBass2018.mp3" MP3

TRACK 01 AUDIO
TITLE "Lights"
PERFORMER "Ellie Goulding"
INDEX 01 00:00:00

TRACK 02 AUDIO
TITLE "In My Head"
PERFORMER "Ivan Reys & Stinie Whizz"
INDEX 01 00:03:00

TRACK 03 AUDIO
TITLE "Dead To Me"
PERFORMER "Sex Whales & Fraxo Feat. Lox Chatterbox"
INDEX 01 00:06:01

TRACK 04 AUDIO
TITLE "Setting Fires"
PERFORMER "The Chainsmokers Feat. Xylo"
INDEX 01 00:09:51

TRACK 05 AUDIO
TITLE "Sober"
PERFORMER "Cheat Codes & Nicky Romero"
INDEX 01 00:13:27

TRACK 06 AUDIO
TITLE "Children Of A Miracle"
PERFORMER "Don Diablo & Marnik"
INDEX 01 00:16:19

TRACK 07 AUDIO
TITLE "Sunburn"
PERFORMER "Droeloe"
INDEX 01 00:18:47

TRACK 08 AUDIO
TITLE "Blame"
PERFORMER "Graves Feat. Locate Emilio"
INDEX 01 00:22:07

TRACK 09 AUDIO
TITLE "What Do You Mean?"
PERFORMER "Justin Bieber"
INDEX 01 00:24:50

TRACK 10 AUDIO
TITLE "Grateful"
PERFORMER "Neffex"
INDEX 01 00:27:58

TRACK 11 AUDIO
TITLE "Show & Tell"
PERFORMER "Said The Sky Feat. Claire Ridgely"
INDEX 01 00:30:48

TRACK 12 AUDIO
TITLE "Light"
PERFORMER "San Holo"
INDEX 01 00:33:25

TRACK 13 AUDIO
TITLE "Abyss"
PERFORMER "Ship Wrek Ft. Beckii Power"
INDEX 01 00:36:11

TRACK 14 AUDIO
TITLE "Show Me Love"
PERFORMER "Unlike Pluto Feat. Michelle Buzz"
INDEX 01 00:38:58

TRACK 15 AUDIO
TITLE "Wicked Ways"
PERFORMER "Dvbbs Ft. Stella Rio"
INDEX 01 00:41:42

TRACK 16 AUDIO
TITLE "Feel Something"
PERFORMER "Anevo Ft. Kayla Diamond"
INDEX 01 00:45:03

TRACK 17 AUDIO
TITLE "Reconcile"
PERFORMER "Gent & Jawns"
INDEX 01 00:48:34

TRACK 18 AUDIO
TITLE "Fractures"
PERFORMER "James Mercy & Ameria"
INDEX 01 00:53:07

TRACK 19 AUDIO
TITLE "Without You"
PERFORMER "Price & Takis"
INDEX 01 00:55:57

TRACK 20 AUDIO
TITLE "Don't Wanna Wait"
PERFORMER "The Burgs & Peacetreaty Ft. Leah Culver"
INDEX 01 00:58:36

TRACK 21 AUDIO
TITLE "Flying High"
PERFORMER "Gndr"
INDEX 01 01:01:30

TRACK 22 AUDIO
TITLE "Time Is Up"
PERFORMER "Ivan Reys & Stinie Whizz"
INDEX 01 01:05:00

TRACK 23 AUDIO
TITLE "Down The Middle"
PERFORMER "Lucian Ft. Kid Coyote"
INDEX 01 01:08:04

TRACK 24 AUDIO
TITLE "Antidote"
PERFORMER "Sinner's Heist Feat. Heather Sommer & Rory Alexzander"
INDEX 01 01:10:40

TRACK 25 AUDIO
TITLE "Watch Me Fall"
PERFORMER "The Lifted Feat. Ashliann"
INDEX 01 01:14:32

TRACK 26 AUDIO
TITLE "Let Me Go"
PERFORMER "Paris Blohm Feat. Karra"
INDEX 01 01:18:42

TRACK 27 AUDIO
TITLE "Lighthouse"
PERFORMER "Ookay"
INDEX 01 01:22:29

TRACK 28 AUDIO
TITLE "I'll Wait"
PERFORMER "Enschway & Sumthin Sumthin"
INDEX 01 01:25:59

TRACK 29 AUDIO
TITLE "Hilo"
PERFORMER "Graves Feat. Boombox Cartel"
INDEX 01 01:27:35

TRACK 30 AUDIO
TITLE "Feel It"
PERFORMER "Jackal Feat. Anfa Rose"
INDEX 01 01:31:59

TRACK 31 AUDIO
TITLE "Rockstar"
PERFORMER "Post Malone & 21 Savage"
INDEX 01 01:35:01

TRACK 32 AUDIO
TITLE "Congratulations"
PERFORMER "Post Malone"
INDEX 01 01:39:28

TRACK 33 AUDIO
TITLE "Never Be Like You Feat. Kai"
PERFORMER "Flume"
INDEX 01 01:43:01

TRACK 34 AUDIO
TITLE "Silence"
PERFORMER "Marshmello & Khalid"
INDEX 01 01:46:19

TRACK 35 AUDIO
TITLE "Your Embrace"
PERFORMER "Nurko"
INDEX 01 01:48:36

TRACK 36 AUDIO
TITLE "I Let You Run Away"
PERFORMER "Yesyes"
INDEX 01 01:52:25

TRACK 37 AUDIO
TITLE "I Wanna Know"
PERFORMER "Rl Grime Ft. Daya"
INDEX 01 01:55:13

TRACK 38 AUDIO
TITLE "Feel It"
PERFORMER "Krane Ft. Cxloe & Khamsin"
INDEX 01 01:58:38

TRACK 39 AUDIO
TITLE "The Wave"
PERFORMER "R3hab & Lia Marie Johnson"
INDEX 01 02:00:18

TRACK 40 AUDIO
TITLE "Hold U Close"
PERFORMER "Shambles"
INDEX 01 02:02:56

TRACK 41 AUDIO
TITLE "Missing"
PERFORMER "Synchronice Ft. Liz"
INDEX 01 02:05:06

TRACK 42 AUDIO
TITLE "Earthquake"
PERFORMER "Duelle"
INDEX 01 02:08:51

TRACK 43 AUDIO
TITLE "You Got Me"
PERFORMER "Boxinlion Feat. Lexie"
INDEX 01 02:11:49

TRACK 44 AUDIO
TITLE "Wasted Love"
PERFORMER "Corporate Slackrs Feat. Emma Zander"
INDEX 01 02:14:24

TRACK 45 AUDIO
TITLE "Be Right There"
PERFORMER "Diplo & Sleepy Tom"
INDEX 01 02:17:50

TRACK 46 AUDIO
TITLE "Goddess"
PERFORMER "Elport & Cadmium Feat. Veronica Bravo"
INDEX 01 02:21:41

TRACK 47 AUDIO
TITLE "Rockabye"
PERFORMER "Clean Bandit Ft. Sean Paul & Anne-marie"
INDEX 01 02:24:19

TRACK 48 AUDIO
TITLE "Fall Away"
PERFORMER "Kalide & Bianca"
INDEX 01 02:27:44

TRACK 49 AUDIO
TITLE "1995"
PERFORMER "Emmit Fenn"
INDEX 01 02:30:52

TRACK 50 AUDIO
TITLE "We Might Fall"
PERFORMER "Ghastly Feat. Matthew Koma"
INDEX 01 02:34:27

TRACK 51 AUDIO
TITLE "Desires"
PERFORMER "Javi Reina & D. Franklin Ft. Tima Dee"
INDEX 01 02:36:51

TRACK 52 AUDIO
TITLE "Burn The Stars"
PERFORMER "Massive Vibes"
INDEX 01 02:40:03

TRACK 53 AUDIO
TITLE "Caught Fire"
PERFORMER "Mercy X Feat. Ashley Lawless"
INDEX 01 02:41:55

TRACK 54 AUDIO
TITLE "On The Hunt"
PERFORMER "Neo Noir & Krigare"
INDEX 01 02:45:17

TRACK 55 AUDIO
TITLE "Into Dust"
PERFORMER "Paris Blohm Feat. Elle Vee"
INDEX 01 02:47:55

TRACK 56 AUDIO
TITLE "Afraid, Unafraid"
PERFORMER "Slumberjack Feat. Sydnee Carter"
INDEX 01 02:51:52

TRACK 57 AUDIO
TITLE "Final Call"
PERFORMER "Florian Picasso"
INDEX 01 02:54:06

TRACK 58 AUDIO
TITLE "Going Under"
PERFORMER "Telykast"
INDEX 01 02:57:45

TRACK 59 AUDIO
TITLE "Siren"
PERFORMER "Vicetone Ft. Pia Toscano"
INDEX 01 03:00:38

TRACK 60 AUDIO
TITLE "Explore The World"
PERFORMER "Votoxy"
INDEX 01 03:03:50

TRACK 61 AUDIO
TITLE "Seams"
PERFORMER "Seams"
INDEX 01 03:06:43

TRACK 62 AUDIO
TITLE "Lost"
PERFORMER "Sinner's Heist Ft. Unknown Brain & Karra"
INDEX 01 03:09:35

TRACK 63 AUDIO
TITLE "Bring Back The Summer"
PERFORMER "Rain Man Feat. Oly"
INDEX 01 03:12:53

TRACK 64 AUDIO
TITLE "Dangerous Night"
PERFORMER "Thirty Seconds To Mars"
INDEX 01 03:15:58

TRACK 65 AUDIO
TITLE "Paris"
PERFORMER "The Chainsmokers"
INDEX 01 03:18:46

TRACK 66 AUDIO
TITLE "Your Love"
PERFORMER "Antics Ft. Fabian James"
INDEX 01 03:21:30

TRACK 67 AUDIO
TITLE "Feel Good"
PERFORMER "Gryffin & Illenium Ft. Daya"
INDEX 01 03:25:27

TRACK 68 AUDIO
TITLE "High By The Beach"
PERFORMER "Lana Del Rey"
INDEX 01 03:29:26

TRACK 69 AUDIO
TITLE "Infinity"
PERFORMER "Mariana Bo Ft. Harley Bird"
INDEX 01 03:32:44

TRACK 70 AUDIO
TITLE "Scared To Be Lonely"
PERFORMER "Martin Garrix Ft. Dua Lipa"
INDEX 01 03:36:04

TRACK 71 AUDIO
TITLE "Sunny Beach"
PERFORMER "Maydes & Avenax"
INDEX 01 03:39:33

TRACK 72 AUDIO
TITLE "Matches"
PERFORMER "Ephixa & Stephen Walking"
INDEX 01 03:42:23

TRACK 73 AUDIO
TITLE "Don't Wanna Know"
PERFORMER "Maroon 5"
INDEX 01 03:45:38

TRACK 74 AUDIO
TITLE "Go Flex"
PERFORMER "Post Malone"
INDEX 01 03:48:40

TRACK 75 AUDIO
TITLE "Right Away"
PERFORMER "Solar Skinner"
INDEX 01 03:52:13

TRACK 76 AUDIO
TITLE "Love Is A Temple"
PERFORMER "Alok Feat. Iro"
INDEX 01 03:55:42

TRACK 77 AUDIO
TITLE "Saturn Barz"
PERFORMER "Gorillaz Ft. Popcaan"
INDEX 01 03:59:19

TRACK 78 AUDIO
TITLE "So Far Away"
PERFORMER "David Guetta & Martin Garrix"
INDEX 01 04:01:55

TRACK 79 AUDIO
TITLE "Vibes"
PERFORMER "Griffin Stoller"
INDEX 01 04:04:36

TRACK 80 AUDIO
TITLE "Wolves"
PERFORMER "Selena Gomez & Marshmello"
INDEX 01 04:07:09

TRACK 81 AUDIO
TITLE "New World"
PERFORMER "Krewella & Yellow Claw Feat. Vava"
INDEX 01 04:10:20

TRACK 82 AUDIO
TITLE "Idfc"
PERFORMER "Blackbear"
INDEX 01 04:12:47

TRACK 83 AUDIO
TITLE "One Way Trip"
PERFORMER "Skan & DJ Ride Ft. M.I.M.E"
INDEX 01 04:16:05

TRACK 84 AUDIO
TITLE "Let It Go"
PERFORMER "Joe Ghost Feat. Mermaids Exist"
INDEX 01 04:19:35

TRACK 85 AUDIO
TITLE "All We Know"
PERFORMER "The Chainsmokers"
INDEX 01 04:21:49

TRACK 86 AUDIO
TITLE "Samurai"
PERFORMER "Vanic"
INDEX 01 04:25:58

TRACK 87 AUDIO
TITLE "How It Go"
PERFORMER "Wide Awake Ft. Indiah"
INDEX 01 04:28:06

TRACK 88 AUDIO
TITLE "Wasted Time"
PERFORMER "Max Styler Ft. Twerl"
INDEX 01 04:31:21

TRACK 89 AUDIO
TITLE "Made For You"
PERFORMER "Neo Noir Ft. Brooke Wiliams"
INDEX 01 04:34:22

TRACK 90 AUDIO
TITLE "Missing You"
PERFORMER "Eff3cts Ft. Sarah De Warren"
INDEX 01 04:38:06

TRACK 91 AUDIO
TITLE "Hold"
PERFORMER "Elephante Ft. Jessica Jarrell"
INDEX 01 04:41:18

TRACK 92 AUDIO
TITLE "Leaving"
PERFORMER "Illenium & Eden"
INDEX 01 04:43:34

TRACK 93 AUDIO
TITLE "Put Me Back Together"
PERFORMER "Cheat Codes Feat. Kiiara"
INDEX 01 04:46:59

TRACK 94 AUDIO
TITLE "Remember"
PERFORMER "Levianth & Axol Feat. The Tech Thieves"
INDEX 01 04:50:43

TRACK 95 AUDIO
TITLE "Letting Go"
PERFORMER "William Black Ft. Park Avenue"
INDEX 01 04:53:16

TRACK 96 AUDIO
TITLE "Here At Last"
PERFORMER "William Black ft. Rico & Miella"
INDEX 01 04:57:06

TRACK 97 AUDIO
TITLE "Lucy In The Sky"
PERFORMER "Wooli Feat. Delaney Kai"
INDEX 01 04:59:57

TRACK 98 AUDIO
TITLE "Always Find You"
PERFORMER "Raiden & Yuri (Girls Generation)"
INDEX 01 05:04:47

TRACK 99 AUDIO
TITLE "Afraid Of The Dark"
PERFORMER "Kuuro Ft. Sophiya"
INDEX 01 05:07:48

TRACK 100 AUDIO
TITLE "Girls"
PERFORMER "Area21"
INDEX 01 05:11:18
Compartir




Los comentarios pueden ser moderados antes de ser publicados.
Puedes usar BBCode para formatear mensajes
Información
El contenido de este sitio web es personal y privado!

Gran parte de su contenido es gratuito y/o con licencia GNU. Sin embargo, mis sesiones suelen estar protegidas con derechos de autor y esta prohibida su venta o distribución.
Online visitors
Actualmente hay 1 invitados y 0 usuarios en línea.
-
Copyright © 2019 by MrJacky
Powered by MemHT
Terms of use
Utilizamos cookies para darle la mejor experiencia en nuestro sitio web. Si continúa usando TRiPuNTo, asumiremos que está feliz de recibir todas las cookies en este sitio web. Para más información, por favor revise nuestros Términos de uso.
Terms of use